<?xml version="1.0" standalone="no"?>
<!DOCTYPE svg PUBLIC "-//W3C//DTD SVG 1.1//EN" "http://www.w3.org/Graphics/SVG/1.1/DTD/svg11.dtd" >
<svg xmlns="http://www.w3.org/2000/svg">
<metadata></metadata>
<defs>
<font id="anchorageregular" horiz-adv-x="805" >
<font-face units-per-em="1024" ascent="819" descent="-205" />
<missing-glyph horiz-adv-x="500" />
<glyph horiz-adv-x="1024" />
<glyph horiz-adv-x="1024" />
<glyph unicode="&#xd;" horiz-adv-x="341" />
<glyph unicode="&#x2000;" horiz-adv-x="419" />
<glyph unicode="&#x2001;" horiz-adv-x="838" />
<glyph unicode="&#x2002;" horiz-adv-x="419" />
<glyph unicode="&#x2003;" horiz-adv-x="838" />
<glyph unicode="&#x2004;" horiz-adv-x="279" />
<glyph unicode="&#x2005;" horiz-adv-x="209" />
<glyph unicode="&#x2006;" horiz-adv-x="139" />
<glyph unicode="&#x2007;" horiz-adv-x="139" />
<glyph unicode="&#x2008;" horiz-adv-x="104" />
<glyph unicode="&#x2009;" horiz-adv-x="167" />
<glyph unicode="&#x200a;" horiz-adv-x="46" />
<glyph unicode="&#x202f;" horiz-adv-x="167" />
<glyph unicode="&#x205f;" horiz-adv-x="209" />
<glyph unicode="&#xe000;" horiz-adv-x="500" d="M0 0z" />
<glyph unicode="&#xe001;" horiz-adv-x="800" d="M4 2h40h526h41v41v179h-82v-139h-444v576h444v-76h-368v-321h620v321h-170v117v40h-41h-526h-40v-40v-657v-41zM162 160h290v60h-290v-60zM235 328v180h74q32 0 48 -19q15 -16 15 -40q0 -25 -12 -41q-15 -20 -49 -20h-29v-60h-47zM282 426h15q15 -1 21 6q5 6 5 16t-6 16 t-20 6h-15v-44zM409 328v180h69q25 0 47 -14q21 -14 32 -37q9 -19 9 -39q0 -28 -17 -52t-43 -33q-14 -5 -28 -5h-69zM455 367h11q28 0 41 19q11 13 11 32t-11 33q-14 18 -41 18h-11v-102zM608 328v180h103v-39h-56v-31h51v-39h-51v-71h-47z" />
<glyph unicode="&#xe002;" horiz-adv-x="705" d="M4 9h486v114h-75v-39h-336v442h51v-370h486v588h-486v-1v-142h-126v-592zM205 228v441h336v-441h-336z" />
<glyph unicode="&#xe004;" horiz-adv-x="920" d="M6 2h830v627h-465v97h-256v-97h-109v-627zM604 76v206h161v-206h-161zM604 306v70h65v-70h-65zM604 399v70h65v-70h-65zM604 493v70h65v-70h-65zM639 109h94v70h-94v-70zM704 306v70h63v-70h-63zM704 399v70h63v-70h-63zM704 493v70h63v-70h-63z" />
<glyph unicode="&#xe005;" horiz-adv-x="760" d="M4 3h40h604h40v40v639v40h-40h-604h-40v-40v-639v-40zM84 83v559h524v-559h-524zM126 200h440v400h-51l-389 -376v-24zM126 273l338 327h-55l-283 -274v-53zM126 347l261 253h-261v-253z" />
<glyph unicode="&#xe006;" horiz-adv-x="750" d="M2 69q0 -29 20 -49.5t49 -20.5h531q29 0 49.5 20.5t20.5 49.5v591q0 29 -20.5 49.5t-49.5 20.5h-531q-29 0 -49 -20.5t-20 -49.5v-591zM65 304v164h245v-35h54v35h245v-164h-245v76h-54v-76h-245zM102 330h175q-3 29 -28 49t-59.5 20t-59.5 -20t-28 -49zM242 164v40h190 v-40h-190zM403 330h175q-3 29 -28 49t-59.5 20t-59.5 -20t-28 -49z" />
<glyph unicode="&#xe007;" horiz-adv-x="980" d="M4 1h40h832h40v40v593v40h-40h-832h-40v-40v-593v-40zM85 82v47l206 224l144 -143l25 -26l25 26l137 136q145 -137 206 -192q3 -2 7 -6v-66h-750zM85 206v353l171 -170q-113 -120 -171 -183zM152 593h616l-308 -308zM657 382l178 177v-341z" />
<glyph unicode="&#xe008;" horiz-adv-x="520" d="M6 5h450v608h-84v128h22v97h-120v-97h23v-128h-291v-608zM89 95v62h1h1h54v-62h-56zM89 182v63h1h1h54v-63h-56zM91 301v209h1h1h279v-209h-281zM169 95v62h1h1h48v-62h-50zM169 182v63h1h1h48v-63h-50zM242 95v62h2h1h51v-62h-54zM242 182v63h2h1h51v-63h-54zM320 95v62 h1h1h50v-62h-52zM320 182v63h1h1h50v-63h-52z" />
<glyph unicode="&#xe009;" horiz-adv-x="760" d="M3 221h336l-118 -118l103 -103v1l250 249l51 51l-51 52l-250 249l-103 -103l128 -127h-346v-151z" />
<glyph unicode="&#xe00a;" horiz-adv-x="760" d="M3 301l51 -51l249 -250l103 103l-127 128h346v151h-336l117 117l-103 103l-249 -249z" />
<glyph unicode="&#xe00b;" horiz-adv-x="785" d="M3 0h699v379h-96v-283h-507v283h-96v-1v-1v-377zM140 144h420v40h-420v-40zM140 223h420v40h-420v-40zM140 514l176 -176l37 -36l36 36l176 176l-73 73l-89 -90v245h-107v-238l-83 83z" />
<glyph unicode="&#xe00c;" horiz-adv-x="685" d="M4 2h41h522h40v40v657v40h-40h-522h-41v-40v-657v-40zM85 83v576h442v-576h-442zM123 230l40 -60l17 -25l17 25l23 34l23 -34l17 -25l17 25l23 34l23 -34l17 -25l17 25l23 34l23 -34l17 -25l17 25l40 60l-34 22l-23 -35l-23 35l-17 25l-17 -25l-23 -35l-23 35l-17 25 l-17 -25l-23 -35l-23 35l-17 25l-17 -25l-23 -35l-23 35zM123 391l40 -60l17 -25l17 25l23 35l23 -35l17 -25l17 25l23 35l23 -35l17 -25l17 25l23 35l23 -35l17 -25l17 25l40 60l-34 22l-23 -35l-23 35l-17 25l-17 -25l-23 -35l-23 35l-17 25l-17 -25l-23 -35l-23 35 l-17 25l-17 -25l-23 -35l-23 35zM123 518l34 -22l23 34l23 -34l17 -25l17 25l23 34l23 -34l17 -25l17 25l23 34l23 -34l17 -25l17 25l23 34l23 -34l34 22l-40 60l-17 25l-17 -25l-23 -35l-23 35l-17 25l-17 -25l-23 -35l-23 35l-17 25l-17 -25l-23 -35l-23 35l-17 25 l-17 -25z" />
<glyph unicode="&#xe00d;" horiz-adv-x="685" d="M3 0h40h519h41v40v653v40h-41h-519h-40v-40v-653v-40zM84 80v573h438v-573h-438zM123 491l19 -19l87 -87l39 39l-68 67l68 68l-39 39l-87 -87zM160 156h286v60h-286v-60zM160 276h286v60h-286v-60zM338 424l39 -39l87 87l19 19l-19 20l-87 87l-39 -39l67 -68z" />
<glyph unicode="&#xe00e;" horiz-adv-x="685" d="M2 4h40h519h40v40v657v40h-40h-519h-40v-40v-657v-40zM82 345v52q25 1 36.5 8.5t17.5 24.5q4 12 4 52q0 34 4.5 50t17.5 27t32 15.5t55 4.5h14v-52q-30 0 -38.5 -3t-11.5 -8.5t-4 -21.5q-1 -51 -4 -66q-4 -22 -17 -37q-9 -10 -28 -20q15 -7 24.5 -16.5t15.5 -23t7 -35.5 q2 -38 2 -51t4 -18.5t13 -8.5t37 -3v-52h-14q-34 0 -51 4q-24 6 -36.5 16t-17 26.5t-4.5 58.5q0 26 -2 36q-3 14 -10 23t-17 13t-29 5zM340 166v52q28 0 37 3t13 8.5t4 18.5t2 50q2 23 7.5 36.5t15.5 23t25 16.5q-20 10 -29 20q-12 14 -17 36q-3 15 -4 67q0 16 -3.5 21.5 t-12 8.5t-38.5 3v52h14q36 0 55 -5t32 -15.5t17.5 -26.5t4.5 -50q0 -40 4 -52q6 -17 18 -24.5t36 -8.5v-52q-19 -1 -29 -5t-17 -13t-10 -23q-2 -11 -2 -36q0 -42 -4.5 -58.5t-17 -26.5t-36.5 -16q-16 -4 -51 -4h-14z" />
<glyph unicode="&#xe010;" d="M9 361q0 -127 79.5 -225t201.5 -124l1 282h-91v103h89q0 24 1 72q0 46 34.5 74.5t80.5 28.5h6h7q14 0 42 -0.5t45 -0.5v-100q-42 0 -52 -2q-15 -1 -22 -9.5t-8.5 -18.5t-2.5 -36v-8h99v-103h-98v-286q129 20 215 120t86 233q0 97 -47.5 179t-129.5 130t-179 48 t-179.5 -48t-130 -130t-47.5 -179z" />
<glyph unicode="&#xe011;" d="M9 361q0 -97 47.5 -179t130 -130t179.5 -48t179 48t129.5 130t47.5 179t-47.5 179t-129.5 130t-179 48t-179.5 -48t-130 -130t-47.5 -179zM148 514.5q0 20.5 15 35.5t35.5 15t35.5 -15t15 -35.5t-15 -35.5t-35.5 -15t-35.5 15t-15 35.5zM149 157v279h98v-279h-98z M297 157l2 281h93v-30q43 30 97 32q86 -3 94 -96l-2 -187h-102l2 184q0 18 -21.5 25.5t-42.5 0t-21 -25.5v-184h-99z" />
<glyph unicode="&#xe012;" d="M6 359q0 -137 92 -238q-9 21 -9 47q8 96 180 101h7q-30 30 -14 76q-19 -1 -32.5 0t-36 7t-36.5 18t-24.5 37t-9.5 60q7 41 32.5 70.5t53 40.5t54.5 12h173l-40 -27l-42 1q31 -29 43 -60.5t2 -65.5t-45 -65q-13 -9 -20 -17t-6.5 -17t2 -15.5t12 -17t17.5 -17t23 -20.5 q9 -8 13 -12q15 -14 24 -31t8 -46t-19 -59q-38 -43 -106 -62.5t-125 -3.5q85 -52 186 -52q97 0 179 47.5t130 129.5t48 179t-48 179.5t-130 130t-179 47.5t-179 -47.5t-130 -130t-48 -179.5zM158 156q7 -25 31 -41t53 -19.5t57.5 1t48.5 21.5t22 42q-1 26 -13.5 41.5 t-32 26.5t-25.5 18q-33 -2 -56 -6.5t-44.5 -13.5t-32 -26.5t-8.5 -43.5zM203 491q3 -18 5.5 -30.5t6.5 -22.5t5.5 -13t8 -12.5l6.5 -9.5q25 -21 47.5 -20.5t37 20.5t10.5 49q-5 44 -25 68q-17 28 -50 29h-2q-22 -1 -36.5 -16t-13.5 -42zM430 323v51h84v85h54v-85h83v-51h-83 v-91h-54v91h-84z" />
<glyph unicode="&#xe013;" d="M5 366.5q0 -98.5 48.5 -182.5t132.5 -132.5t182.5 -48.5t182 48.5t132.5 132.5t49 182.5t-49 182t-132.5 132.5t-182 49t-182.5 -49t-132.5 -132.5t-48.5 -182zM131 172q48 -2 81 10t66 35q-58 4 -95 73q10 -3 28.5 -1.5t30.5 6.5q-40 6 -66 34t-32 68q31 -14 64 -12 q-32 23 -48.5 58.5t1.5 80.5q95 -106 217 -108q-8 52 22.5 90t76.5 38q44 1 81 -36q31 7 71 31q-1 -1 -5 -9t-5.5 -10.5t-5.5 -10t-7.5 -11l-8.5 -8.5t-10.5 -8.5t-11.5 -5.5q7 0 16.5 2.5t16 5t17.5 7.5t14 7q-2 -3 -10.5 -17.5t-13 -20.5t-13.5 -15t-18 -13 q2 -110 -46 -177.5t-143 -106.5q-38 -11 -70.5 -15t-52.5 -5t-45.5 5.5t-33.5 9t-33.5 15t-28.5 14.5z" />
<glyph unicode="&#xe014;" d="M2 356q0 -97 48 -179t130 -130t179 -48t179.5 48t130 130t47.5 179t-47.5 179t-130 130t-179.5 48t-179 -48t-130 -130t-48 -179zM142 248q-32 119 0 216q12 36 36 36h360q24 0 36 -36q35 -98 0 -216q-10 -36 -36 -36h-360q-26 0 -36 36zM307 280q0 -7 6.5 -10.5 t12.5 0.5l126 75q6 4 6 11t-6 11l-126 75q-3 2 -6 2q-5 0 -9 -3.5t-4 -8.5v-152z" />
<glyph unicode="&#xe015;" horiz-adv-x="840" d="M11 311q12 -70 50 -132t95 -104q57 -41 125.5 -59t137.5 -9q72 9 136.5 45.5t108.5 93.5q43 55 63 123.5t13 137.5q-7 72 -41.5 137t-89.5 110q-50 42 -112.5 64.5t-127.5 20.5q-86 0 -164.5 -41t-128.5 -110q-43 -59 -60 -132t-5 -145zM53 392q4 71 37 132q6 12 10 15 q8 -4 51 -29q1 -3 -2.5 -8t-3.5 -6q-24 -46 -29.5 -98.5t9.5 -102.5q6 -16 5 -20q-8 -6 -25.5 -13t-23.5 -11q-3 -1 -5.5 1t-2.5 4q-24 65 -20 136zM163.5 333q-9.5 52 5.5 101q15 48 51 86t84 54q33 11 70 12q60 0 113.5 -33.5t79.5 -87.5q24 -50 20 -108t-35 -104 q-28 -42 -74 -68t-97 -27q-51 -2 -98.5 20t-78.5 63q-31 40 -40.5 92zM205 100q3 9 11.5 22.5t11.5 19.5q4 8 7 9q55 -34 117 -39q65 -5 126 21q3 0 4.5 -2t3 -5.5t2.5 -4.5t7.5 -16.5t9.5 -22.5q0 -3 -2 -4.5t-5.5 -2.5t-4.5 -2q-64 -27 -136 -23t-132 37q-1 1 -7 3.5 t-8.5 4.5t-4.5 5zM242 660q-2 6 5 7q58 27 132 26q71 0 137 -33q10 -4 10 -8q-3 -8 -7.5 -16t-11 -18.5t-9.5 -15.5q-3 -1 -8 2t-6 3q-46 22 -98.5 24.5t-100.5 -15.5q-15 -6 -19 -6q-6 8 -13 25.5t-11 24.5zM259 447q4 -3 13 -3.5t11 -1.5q1 0 16 -2t23 -1q3 2 4.5 9 t2.5 10q5 13 17 22t26 9q15 2 28.5 -5t17.5 -21q3 -10 -2 -21t-15 -17q-3 -3 -12.5 -11t-14.5 -12t-12 -11.5t-11 -14.5t-7 -15q-6 -23 -4 -66q2 -3 6 -3.5t7 0.5t7 0h21t21 1q3 3 2.5 10.5t0.5 11.5q0 31 17 43q4 4 17.5 15.5t19.5 17.5t14 17t12 22q9 26 -2 53t-34 43 q-32 22 -82 21q-33 -1 -62 -18.5t-40 -47.5q-8 -22 -6 -34zM339 257q0 -38 1 -54q2 -3 5.5 -3.5t7 0t7.5 -0.5q3 1 24 0.5t24 0.5t2.5 11t-0.5 11q0 4 0.5 23.5t-0.5 23.5q-2 2 -11 2h-27.5t-27.5 -1q-3 0 -4 -2.5t-0.5 -5.5t-0.5 -5zM604 244q-2 2 3 12q24 49 26.5 105.5 t-17.5 107.5q-1 3 -5 9.5t-3 11.5q15 9 54 24q2 -2 4 -7.5t3 -7.5q28 -63 26.5 -134.5t-32.5 -133.5q-5 -13 -9 -14q-10 3 -27 13.5t-23 13.5z" />
<glyph unicode="&#xe016;" horiz-adv-x="875" d="M4 303l211 -365l475 274l114 309l-325 56zM560.5 424q5.5 21 24.5 32t40 5.5t32 -24.5t5.5 -40t-24.5 -32t-40 -5.5t-32 24.5t-5.5 40z" />
<glyph unicode="&#xe017;" horiz-adv-x="680" d="M4 0h600v426h-600v-426zM74 454h100v56q0 46 32 78t78 32h40q46 0 78 -32t32 -78v-56h100v56q0 87 -61.5 148.5t-148.5 61.5h-40q-87 0 -148.5 -61.5t-61.5 -148.5v-56zM244 258q0 25 17.5 42.5t42.5 17.5t42.5 -17.5t17.5 -42.5q0 -18 -10 -33t-27 -22l28 -99h-102 l28 99q-17 7 -27 22t-10 33z" />
<glyph unicode="&#xe018;" horiz-adv-x="780" d="M6 110.5q0 -43.5 31 -74.5t74.5 -31t74.5 31t31 74.5t-31 74.5t-74.5 31t-74.5 -31t-31 -74.5zM6 325q131 0 224 -92.5t93 -224.5v-2v-1h141v1v2q0 93 -36.5 178t-97.5 146t-146 97.5t-178 36.5v-141zM7 573q115 -4 218 -50.5t178.5 -122t121.5 -179.5t49 -218h129 q-3 141 -59.5 268.5t-149 220.5t-219.5 149.5t-268 60.5v-129z" />
<glyph unicode="&#xe019;" horiz-adv-x="780" d="M6 -32l280 226l280 -226v746h-560v-746zM118 473l118 15l52 106l50 -107l117 -17l-86 -81l20 -116l-104 57l-104 -55l22 116z" />
<glyph unicode="&#xe020;" horiz-adv-x="800" d="M3 0h41h525h41v41v179h-81v-139h-445v576h445v-76h-369v-321h620v321h-170v117v40h-41h-525h-41v-40v-657v-41zM161 158h291v60h-291v-60zM228 336v166h64q23 0 43 -13q20 -12 30 -33q9 -18 9 -36q0 -26 -16 -48.5t-40 -30.5q-13 -5 -26 -5h-64zM271 373h10q25 0 38 17 q10 12 10 29.5t-10 29.5q-13 17 -38 17h-10v-93zM394 419q0 15 6 31.5t16 27.5q26 29 69.5 29t69.5 -29q23 -25 23 -59t-23 -59q-26 -30 -69.5 -30t-69.5 30q-22 25 -22 59zM439 419q0 -17 11 -30q14 -17 35.5 -17t35.5 17q12 13 12 30t-12 30q-14 16 -35 17q-15 -1 -27 -9 t-17 -22q-3 -8 -3 -16zM598 419q0 41 31 67q25 20 57 20q17 0 39 -8v-52q-7 7 -13 11q-11 7 -25 7q-16 0 -29 -10q-16 -13 -16 -35t16 -35q13 -10 29 -10q14 0 25 7q6 3 13 11v-52q-22 -8 -40 -8q-31 0 -56 20q-31 26 -31 67z" />
<glyph unicode="&#xe021;" horiz-adv-x="1400" d="M6 345.5q0 -94.5 46 -174t125.5 -125.5t173.5 -46h614q94 0 173.5 46t126 125.5t46.5 174t-46.5 174t-126 125.5t-173.5 46h-614q-94 0 -173.5 -46t-125.5 -125.5t-46 -174zM582 107v478h360q82 1 149 -48q47 -34 72.5 -89t23.5 -114q-2 -52 -27 -99t-66 -79 q-50 -38 -101 -44q-109 -7 -411 -5zM616 345q0 -44 29 -77q33 -38 90 -38t91 38q29 33 29 77t-29 78q-34 37 -91 37t-90 -37q-13 -15 -21 -36.5t-8 -41.5zM674 345q0 11 4 21q7 18 22.5 29t34.5 11q28 0 47 -21q14 -17 14 -40q0 -22 -14 -39q-18 -21 -46.5 -21t-46.5 21 q-15 17 -15 39zM891 238h56v132l103 -132h56v216h-56v-132l-103 132h-56v-216z" />
<glyph unicode="&#xe022;" horiz-adv-x="1400" d="M0 351q0 -95 47 -175.5t127 -127t176 -46.5h621q95 0 175.5 46.5t127 127t46.5 175.5t-46.5 175.5t-127 127.5t-175.5 47h-621q-96 0 -176 -47t-127 -127.5t-47 -175.5zM127.5 389q7.5 48 33.5 89q26 42 68 71.5t90 37.5q100 6 235 6q48 1 137.5 0t130.5 -1v-483 q-57 0 -201 1t-201 -1q-88 -7 -153 22q-50 21 -86 65t-49 98q-12 47 -4.5 95zM202 345q0 -45 29 -78q34 -38 91.5 -38t91.5 38q30 33 30 78t-30 78q-34 38 -91.5 38t-91.5 -38q-13 -15 -21 -36.5t-8 -41.5zM261 345q0 11 4 21q6 18 22 29t36 11q28 0 47 -21q15 -17 15 -40 t-15 -40q-19 -21 -47.5 -21t-46.5 21q-15 18 -15 40zM480 236h57v87h62v47h-62v37h68v48h-125v-219zM639 236h57v87h62v47h-62v37h68v48h-125v-219z" />
<glyph unicode="&#xe023;" horiz-adv-x="840" d="M6 365q0 -125 72.5 -224t187.5 -137q13 -3 19.5 3t6.5 15v13t-0.5 24t-0.5 28q-22 -6 -40 -4.5t-31 4.5t-23.5 10.5t-16.5 13t-10 13t-5 10t-2 4.5q-8 19 -18.5 33t-16.5 18l-7 5q-15 11 -14.5 16t8.5 6l9 1q16 -2 31 -11.5t21 -18.5l6 -10q12 -20 28 -30.5t32.5 -10.5 t28 2.5t22.5 7.5q4 34 24 51q-36 4 -63.5 13t-54.5 29t-41.5 57t-14.5 89q0 59 40 102q-19 45 3 100q2 1 4.5 1.5t12 -0.5t20.5 -4.5t29.5 -12.5t38.5 -23q45 13 95 13t95 -13q33 22 59 32t36 9l10 -2q22 -55 4 -100q39 -43 39 -102q0 -53 -14.5 -89.5t-41.5 -56.5 t-54.5 -29t-63.5 -13q26 -22 26 -71q0 -30 -0.5 -66t-0.5 -38q0 -9 6.5 -15t20.5 -3q114 38 187 137t73 224q0 103 -51 190.5t-139 138.5t-191 51t-191 -51t-138.5 -138.5t-50.5 -190.5z" />
</font>
</defs>
</svg>
